<?xml version="1.0" standalone="no"?> <!DOCTYPE svg PUBLIC "-//W3C//DTD SVG 1.0//EN" "http://www.w3.org/TR/2001/REC-SVG-20010904/DTD/svg10.dtd" > <svg xmlns="http://www.w3.org/2000/svg" width="100%" height="100%">
<defs >
<font id="MathJax_Size2-Regular" horiz-adv-x="831" ><font-face
    font-family="MathJax_Size2"
    units-per-em="1000"
    panose-1="0 0 0 0 0 0 0 0 0 0"
    ascent="1627"
    descent="-1062"
    alphabetic="0" />
<missing-glyph horiz-adv-x="250" d="M50 0V533H200V0H50ZM100 50H150V483H100V50Z" />
<glyph unicode=" " glyph-name="space" horiz-adv-x="250" />
<glyph unicode="(" glyph-name="parenleft" horiz-adv-x="597" d="M561 -640Q561 -643 555 -649H527Q425 -562 349 -437T232 -161Q180 26 180 250Q180 473 232 662Q316 969 527 1150H555Q561 1144 561 1141Q561 1137 548 1123Q518 1090 486 1050Q313 816 280 445Q272
368 272 251Q272 133 280 56Q318 -374 548 -622Q561 -636 561 -640Z" />
<glyph unicode=")" glyph-name="parenright" horiz-adv-x="597" d="M35 1138Q35 1146 39 1148T56 1150H69Q171 1063 247 938T364 662Q416 475 416 250Q416 28 364 -161Q280 -468 69 -649H56Q42 -649 39 -647T35 -637Q36 -636 48 -622Q278 -374 316 56Q324 133
324 251Q324 368 316 445Q283 816 110 1050Q78 1091 48 1123Q36 1137 35 1138Z" />
<glyph unicode="/" glyph-name="slash" horiz-adv-x="811" d="M78 -649Q56 -647 56 -625Q56 -614 382 261T712 1140Q715 1150 732 1150Q754 1148 754 1126Q754 1116 428 240T98 -639Q95 -649 78 -649Z" />
<glyph unicode="[" glyph-name="bracketleft" horiz-adv-x="472" d="M224 -649V1150H455V1099H275V-598H455V-649H224Z" />
<glyph unicode="\" glyph-name="backslash" horiz-adv-x="811" d="M754 -625Q754 -649 731 -649Q715 -649 712 -639Q709 -635 383 242T55 1124Q54 1135 61 1142T80 1150Q92 1150 98 1140Q101 1137 427 262T754 -625Z" />
<glyph unicode="]" glyph-name="bracketright" horiz-adv-x="472" d="M16 1099V1150H247V-649H16V-598H196V1099H16Z" />
<glyph unicode="{" glyph-name="braceleft" horiz-adv-x="667" d="M547 -643L541 -649H528Q515 -649 503 -645Q324 -582 293 -466Q289 -449 289 -428T287 -200L286 42L284 53Q279 77 272 92Q238 177 133 228Q123 231 121 234T119 250T121 266T133 273Q238 324
272 409Q279 424 284 449L286 460L287 701Q287 737 287 794Q288 949 292 963Q293 966 293 967Q314 1044 406 1101Q449 1126 508 1148Q516 1150 527 1150H541L547 1144V1130Q547 1117 546 1115T536 1109Q498 1094 467 1071Q396 1021 381 950L379 940L378 699Q378
657 378 594Q377 452 374 438Q373 437 373 436Q350 348 243 282Q192 257 186 254L176 251L188 245Q343 183 373 65Q373 64 374 63Q377 49 378 -93Q378 -156 378 -198L379 -438L381 -449Q396 -520 467 -570Q498 -593 536 -608Q544 -611 545 -613T547 -629V-643Z"
/>
<glyph unicode="}" glyph-name="braceright" horiz-adv-x="667" d="M119 1130Q119 1145 121 1147T139 1150Q152 1150 165 1145Q227 1123 273 1092Q354 1037 373 964Q378 942 378 702Q378 469 379 462Q386 394 439 339Q482 296 535 272Q544 268 545 266T547 251Q547
238 546 236T535 229Q503 214 477 194Q390 129 379 39Q378 32 378 -201Q378 -441 373 -463Q354 -536 273 -591Q227 -622 165 -644Q152 -649 139 -649Q125 -649 122 -646T119 -629Q119 -620 121 -616T125 -610T133 -606T143 -602Q195 -579 235 -539T285 -447Q286
-435 287 -199T289 51Q301 101 324 133T390 197Q429 226 489 250L482 253Q476 256 465 261T439 273T409 292T377 314T346 342T321 374Q302 402 293 434Q289 451 289 472T287 699Q286 941 285 948Q275 999 235 1039T143 1103Q139 1105 133 1107T125 1110T121 1116T119
1130Z" />
<glyph unicode="&#xa0;" glyph-name="uni00A0" horiz-adv-x="250" />
<glyph unicode="&#x2c6;" glyph-name="circumflex" horiz-adv-x="1000" d="M1004 603Q1004 600 999 583T991 565L960 574Q929 582 866 599T745 631L500 698Q497 698 254 631Q197 616 134 599T39 574L8 565Q6 565 1 582T-5 603L26 614Q58 624 124 646T248 687L499
772Q999 604 1004 603Z" />
<glyph unicode="&#x2dc;" glyph-name="tilde" horiz-adv-x="1000" d="M304 749H321Q361 749 395 744T449 732T513 711Q605 678 653 672Q665 670 703 670Q781 670 861 699Q922 720 970 744Q973 745 976 746T981 749L983 750Q986 742 991 733L999 717L963 699Q876
656 809 634T664 611Q617 611 568 624Q540 631 487 650Q393 683 346 689Q334 691 296 691Q218 691 138 662Q77 641 29 617Q26 616 23 615T18 612L16 611Q13 619 8 628L0 644L36 662Q116 702 176 722Q241 743 304 749Z" />
<glyph unicode="&#x302;" glyph-name="uni0302" horiz-adv-x="0" d="M4 603Q4 600 -1 583T-9 565L-40 574Q-71 582 -134 599T-255 631L-500 698Q-503 698 -746 631Q-803 616 -866 599T-961 574L-992 565Q-994 565 -999 582T-1005 603L-974 614Q-942 624 -876 646T-752
687L-501 772Q-1 604 4 603Z" />
<glyph unicode="&#x303;" glyph-name="tildecomb" horiz-adv-x="0" d="M-696 749H-679Q-639 749 -605 744T-551 732T-487 711Q-395 678 -347 672Q-335 670 -297 670Q-219 670 -139 699Q-78 720 -30 744Q-27 745 -24 746T-19 749L-17 750Q-14 742 -9 733L-1 717L-37
699Q-124 656 -191 634T-336 611Q-383 611 -432 624Q-460 631 -513 650Q-607 683 -654 689Q-666 691 -704 691Q-782 691 -862 662Q-923 641 -971 617Q-974 616 -977 615T-982 612L-984 611Q-987 619 -992 628L-1000 644L-964 662Q-884 702 -824 722Q-759 743 -696
749Z" />
<glyph unicode="&#x220f;" glyph-name="product" horiz-adv-x="1278" d="M1058 -311Q1077 -396 1211 -396H1221V-450H725V-396H735Q860 -396 886 -320L889 -311V896H388V292L389 -311Q408 -396 542 -396H552V-450H56V-396H66Q191 -396 217 -320L220 -311V812Q209
840 197 855T159 881Q121 896 66 896H56V950H1221V896H1211Q1080 896 1058 812V-311Z" />
<glyph unicode="&#x2210;" glyph-name="uni2210" horiz-adv-x="1278" d="M1058 -311Q1077 -396 1211 -396H1221V-450H56V-396H66Q191 -396 217 -320L220 -311V812Q209 840 197 855T159 881Q121 896 66 896H56V950H552V896H542Q411 896 389 812L388 208V-396H889V812Q878
840 866 855T828 881Q790 896 735 896H725V950H1221V896H1211Q1080 896 1058 812V-311Z" />
<glyph unicode="&#x2211;" glyph-name="summation" horiz-adv-x="1444" d="M60 948Q63 950 665 950H1267L1325 815Q1338 784 1354 746T1377 691T1388 669H1348L1341 683Q1320 724 1285 761Q1251 794 1211 817Q1099 885 895 898Q846 901 543 902H251L259 891Q722
258 724 252Q725 250 724 246Q721 243 460 -56L196 -356Q196 -357 407 -357Q832 -357 866 -355Q1003 -348 1077 -330Q1224 -294 1307 -196Q1328 -169 1348 -124H1388Q1385 -130 1325 -294L1267 -449L666 -450Q64 -450 61 -448Q55 -446 55 -439Q55 -437 57 -433L590
177Q590 178 557 222T452 366T322 544L56 909L55 924Q55 945 60 948Z" />
<glyph unicode="&#x221a;" glyph-name="radical" horiz-adv-x="1000" d="M1001 1150Q1018 1150 1020 1132Q1020 1127 741 244L460 -643Q453 -650 436 -650H424Q422 -645 409 -598T366 -448T312 -259L203 119L138 41L111 67L212 188L264 248L472 -474L983 1140Q989
1150 1001 1150Z" />
<glyph unicode="&#x222b;" glyph-name="integral'" horiz-adv-x="556" d="M167 -741Q167 -784 114 -798Q116 -801 120 -804Q139 -824 165 -824Q178 -825 192 -812Q243 -761 296 -511Q324 -381 367 -133Q457 397 591 934Q613 1018 624 1059T659 1166T707 1273T764
1336Q797 1360 828 1360Q879 1360 910 1327T944 1245Q944 1216 930 1200T887 1183Q864 1183 848 1199T832 1239Q832 1282 885 1296L882 1300Q879 1303 874 1307T866 1313Q851 1323 833 1323Q828 1323 826 1322Q794 1313 761 1222Q728 1132 688 929Q658 783 633
628Q537 79 409 -435Q377 -562 355 -629Q318 -741 274 -799Q229 -862 165 -862Q120 -862 89 -828T55 -746Q55 -718 70 -702T112 -685Q135 -685 151 -701T167 -741Z" />
<glyph unicode="&#x222c;" glyph-name="uni222C" horiz-adv-x="1084" d="M167 -741Q167 -784 114 -798Q116 -801 120 -804Q139 -824 165 -824Q178 -825 192 -812Q243 -761 296 -511Q324 -381 367 -133Q457 397 591 934Q613 1018 624 1059T659 1166T707 1273T764
1336Q797 1360 828 1360Q879 1360 910 1327T944 1245Q944 1216 930 1200T887 1183Q864 1183 848 1199T832 1239Q832 1282 885 1296L882 1300Q879 1303 874 1307T866 1313Q851 1323 833 1323Q828 1323 826 1322Q794 1313 761 1222Q728 1132 688 929Q658 783 633
628Q537 79 409 -435Q377 -562 355 -629Q318 -741 274 -799Q229 -862 165 -862Q120 -862 89 -828T55 -746Q55 -718 70 -702T112 -685Q135 -685 151 -701T167 -741ZM695 -741Q695 -784 642 -798Q644 -801 648 -804Q667 -824 693 -824Q706 -825 720 -812Q771 -761
824 -511Q852 -381 895 -133Q985 397 1119 934Q1141 1018 1152 1059T1187 1166T1235 1273T1292 1336Q1325 1360 1356 1360Q1407 1360 1438 1327T1472 1245Q1472 1216 1458 1200T1415 1183Q1392 1183 1376 1199T1360 1239Q1360 1282 1413 1296L1410 1300Q1407 1303
1402 1307T1394 1313Q1379 1323 1361 1323Q1356 1323 1354 1322Q1322 1313 1289 1222Q1256 1132 1216 929Q1186 783 1161 628Q1065 79 937 -435Q905 -562 883 -629Q846 -741 802 -799Q757 -862 693 -862Q648 -862 617 -828T583 -746Q583 -718 598 -702T640 -685Q663
-685 679 -701T695 -741Z" />
<glyph unicode="&#x222d;" glyph-name="uni222D" horiz-adv-x="1592" d="M167 -741Q167 -784 114 -798Q116 -801 120 -804Q139 -824 165 -824Q178 -825 192 -812Q243 -761 296 -511Q324 -381 367 -133Q457 397 591 934Q613 1018 624 1059T659 1166T707 1273T764
1336Q797 1360 828 1360Q879 1360 910 1327T944 1245Q944 1216 930 1200T887 1183Q864 1183 848 1199T832 1239Q832 1282 885 1296L882 1300Q879 1303 874 1307T866 1313Q851 1323 833 1323Q828 1323 826 1322Q794 1313 761 1222Q728 1132 688 929Q658 783 633
628Q537 79 409 -435Q377 -562 355 -629Q318 -741 274 -799Q229 -862 165 -862Q120 -862 89 -828T55 -746Q55 -718 70 -702T112 -685Q135 -685 151 -701T167 -741ZM695 -741Q695 -784 642 -798Q644 -801 648 -804Q667 -824 693 -824Q706 -825 720 -812Q771 -761
824 -511Q852 -381 895 -133Q985 397 1119 934Q1141 1018 1152 1059T1187 1166T1235 1273T1292 1336Q1325 1360 1356 1360Q1407 1360 1438 1327T1472 1245Q1472 1216 1458 1200T1415 1183Q1392 1183 1376 1199T1360 1239Q1360 1282 1413 1296L1410 1300Q1407 1303
1402 1307T1394 1313Q1379 1323 1361 1323Q1356 1323 1354 1322Q1322 1313 1289 1222Q1256 1132 1216 929Q1186 783 1161 628Q1065 79 937 -435Q905 -562 883 -629Q846 -741 802 -799Q757 -862 693 -862Q648 -862 617 -828T583 -746Q583 -718 598 -702T640 -685Q663
-685 679 -701T695 -741ZM1203 -741Q1203 -784 1150 -798Q1152 -801 1156 -804Q1175 -824 1201 -824Q1214 -825 1228 -812Q1279 -761 1332 -511Q1360 -381 1403 -133Q1493 397 1627 934Q1649 1018 1660 1059T1695 1166T1743 1273T1800 1336Q1833 1360 1864 1360Q1915
1360 1946 1327T1980 1245Q1980 1216 1966 1200T1923 1183Q1900 1183 1884 1199T1868 1239Q1868 1282 1921 1296L1918 1300Q1915 1303 1910 1307T1902 1313Q1887 1323 1869 1323Q1864 1323 1862 1322Q1830 1313 1797 1222Q1764 1132 1724 929Q1694 783 1669 628Q1573
79 1445 -435Q1413 -562 1391 -629Q1354 -741 1310 -799Q1265 -862 1201 -862Q1156 -862 1125 -828T1091 -746Q1091 -718 1106 -702T1148 -685Q1171 -685 1187 -701T1203 -741Z" />
<glyph unicode="&#x222e;" glyph-name="uni222E" horiz-adv-x="556" d="M167 -741Q167 -784 114 -798Q116 -801 120 -804Q139 -824 165 -824Q178 -825 192 -812Q243 -761 296 -511Q342 -301 390 2Q313 40 276 99Q230 166 230 249Q230 330 276 400Q308 449 362
481T484 519H494L503 563Q589 947 631 1083Q676 1232 727 1298Q766 1350 817 1359Q820 1360 828 1360Q879 1360 910 1327T944 1245Q944 1216 930 1200T887 1183Q864 1183 848 1199T832 1239Q832 1282 885 1296L882 1300Q879 1303 874 1307T866 1313Q851 1323 833
1323Q828 1323 826 1322Q794 1313 761 1222Q728 1132 688 929Q664 814 630 611L610 496Q616 493 623 489Q680 461 718 408T768 285Q770 269 770 249Q770 166 724 99Q693 50 638 18T516 -21H506L497 -65Q415 -427 370 -582Q325 -731 274 -799Q229 -862 165 -862Q120
-862 89 -828T55 -746Q55 -718 70 -702T112 -685Q135 -685 151 -701T167 -741ZM431 223Q438 254 451 318T473 427T485 478H480Q444 478 400 456Q354 434 322 394T277 304Q271 281 271 249T277 194Q297 107 375 56L397 43Q398 43 400 57Q403 74 415 140T431 223ZM730
249Q730 383 603 455Q594 419 569 276Q562 246 549 181T527 71T515 20H519Q531 20 555 26Q622 42 668 93T728 216Q730 232 730 249Z" />
<glyph unicode="&#x22c0;" glyph-name="uni22C0" horiz-adv-x="1111" d="M1055 -401Q1055 -420 1041 -435T1007 -450Q977 -450 963 -423Q959 -417 757 167L555 750L353 167Q151 -417 147 -423Q134 -450 104 -450Q84 -450 70 -436T55 -401Q55 -394 56 -390Q59 -381
284 270T512 925Q524 950 555 950Q583 950 597 926Q599 923 825 270T1054 -391Q1055 -394 1055 -401Z" />
<glyph unicode="&#x22c1;" glyph-name="uni22C1" horiz-adv-x="1111" d="M55 900Q55 919 68 934T103 950Q134 950 147 924Q152 913 353 333L555 -250L757 333Q958 913 963 924Q978 950 1007 950Q1027 950 1041 935T1055 901Q1055 894 1054 891Q1052 884 826 231T597
-426Q584 -450 556 -450Q527 -450 512 -424Q510 -421 285 229T56 890Q55 893 55 900Z" />
<glyph unicode="&#x22c2;" glyph-name="uni22C2" horiz-adv-x="1111" d="M520 949H542Q594 949 606 948Q751 932 863 847Q937 792 985 713T1048 545Q1053 516 1053 475T1055 49Q1055 -406 1054 -410Q1051 -427 1037 -438T1006 -450T976 -439T958 -411Q957 -407
957 37Q957 484 956 494Q946 639 832 745T554 852Q481 852 411 826Q301 786 232 696T154 494Q153 484 153 37Q153 -407 152 -411Q148 -428 135 -439T104 -450T73 -439T56 -410Q55 -406 55 49Q56 505 57 516Q81 711 225 830Q353 935 520 949Z" />
<glyph unicode="&#x22c3;" glyph-name="uni22C3" horiz-adv-x="1111" d="M56 911Q58 927 71 938T103 950Q120 950 134 939T152 911Q153 907 153 463Q153 16 154 6Q164 -139 278 -245T556 -352Q630 -352 700 -326Q809 -286 878 -196T956 6Q957 16 957 463Q957 907
958 911Q962 928 975 939T1006 950T1037 939T1054 911Q1055 906 1055 451Q1054 -5 1053 -16Q1042 -106 1003 -182Q928 -325 781 -398Q674 -449 555 -449Q511 -449 480 -444Q394 -432 316 -391T179 -286Q83 -180 62 -45Q57 -16 57 25T55 451Q55 906 56 911Z" />
<glyph unicode="&#x2308;" glyph-name="uni2308" horiz-adv-x="528" d="M224 -649V1150H511V1099H275V-649H224Z" />
<glyph unicode="&#x2309;" glyph-name="uni2309" horiz-adv-x="528" d="M16 1099V1150H303V-649H252V1099H16Z" />
<glyph unicode="&#x230a;" glyph-name="uni230A" horiz-adv-x="528" d="M224 -649V1150H275V-598H511V-649H224Z" />
<glyph unicode="&#x230b;" glyph-name="uni230B" horiz-adv-x="528" d="M252 -598V1150H303V-649H16V-598H252Z" />
<glyph unicode="&#x27e8;" glyph-name="uni27E8" horiz-adv-x="611" d="M112 244V258L473 1130Q479 1141 483 1145T498 1150Q510 1150 517 1143T523 1125V1118L344 685Q304 587 257 473T187 305L165 251L344 -184L523 -616V-623Q524 -634 517 -641T499 -649Q484
-649 473 -629L112 244Z" />
<glyph unicode="&#x27e9;" glyph-name="uni27E9" horiz-adv-x="611" d="M112 -649Q102 -649 94 -641T87 -623V-616L266 -184L445 251Q445 252 356 466T178 898T86 1123Q85 1133 92 1141T110 1150Q126 1150 133 1137Q134 1136 317 695L498 258V244L317 -194Q134
-635 133 -636Q126 -649 112 -649Z" />
<glyph unicode="&#x2a00;" glyph-name="uni2A00" horiz-adv-x="1511" d="M668 944Q698 949 744 949Q803 949 814 948Q945 934 1051 884Q1271 781 1380 563Q1454 415 1454 250Q1454 134 1416 22Q1352 -164 1204 -287Q1047 -418 847 -444Q811 -449 755 -449T664
-444Q485 -420 346 -317T130 -63Q56 85 56 250Q56 366 94 478Q158 664 307 787Q466 920 668 944ZM809 850Q798 851 747 851Q700 851 678 847Q501 824 367 710Q243 603 184 439Q154 347 154 251Q154 92 233 -49Q305 -173 427 -254T708 -350Q726 -352 755 -352Q785
-352 803 -350Q913 -340 1010 -295Q1112 -248 1191 -165T1312 24Q1356 135 1356 250Q1356 417 1274 553T1065 766Q946 837 809 850ZM665 250Q665 290 691 315T758 341Q794 339 819 314T845 250Q845 210 820 185T755 160Q722 160 699 179T667 228Q665 240 665 250Z"
/>
<glyph unicode="&#x2a01;" glyph-name="uni2A01" horiz-adv-x="1511" d="M668 944Q698 949 744 949Q803 949 814 948Q945 934 1051 884Q1271 781 1380 563Q1454 415 1454 250Q1454 134 1416 22Q1352 -164 1204 -287Q1047 -418 847 -444Q811 -449 755 -449T664
-444Q485 -420 346 -317T130 -63Q56 85 56 250Q56 366 94 478Q158 664 307 787Q466 920 668 944ZM706 299V850H704Q660 846 622 837Q444 797 318 665T161 342Q156 312 156 300Q156 299 431 299H706ZM832 847Q814 849 810 849L804 850V299H1079Q1354 299 1354 300V302Q1353
304 1353 308T1352 315Q1339 440 1277 548T1116 732Q987 827 832 847ZM706 -350V201H431Q156 201 156 200V198Q157 196 157 192T158 185Q171 60 233 -48T395 -232Q528 -332 700 -349L706 -350ZM1354 200Q1354 201 1079 201H804V-350L810 -349Q917 -339 1010 -295Q1112
-248 1191 -165T1312 24Q1337 87 1349 158Q1354 188 1354 200Z" />
<glyph unicode="&#x2a02;" glyph-name="uni2A02" horiz-adv-x="1511" d="M668 944Q698 949 744 949Q803 949 814 948Q945 934 1051 884Q1271 781 1380 563Q1454 415 1454 250Q1454 134 1416 22Q1352 -164 1204 -287Q1047 -418 847 -444Q811 -449 755 -449T664
-444Q485 -420 346 -317T130 -63Q56 85 56 250Q56 366 94 478Q158 664 307 787Q466 920 668 944ZM809 850Q798 851 747 851H728Q716 851 708 850Q541 837 408 741Q367 713 367 709L755 320L1143 709Q1143 713 1102 741Q972 833 809 850ZM685 250L297 639Q291 639
251 579Q219 527 198 476Q154 365 154 250Q154 92 233 -49Q243 -68 269 -104Q293 -139 297 -139L685 250ZM1223 627Q1214 639 1213 639L825 250L1213 -139Q1219 -139 1259 -79Q1291 -27 1312 24Q1356 135 1356 250Q1356 408 1277 549Q1252 592 1223 627ZM1143 -209L755
180Q754 180 561 -14T367 -209Q367 -211 393 -230T435 -259Q556 -336 707 -350Q725 -352 755 -352T803 -350Q953 -336 1076 -259Q1092 -249 1117 -230T1143 -209Z" />
<glyph unicode="&#x2a04;" glyph-name="uni2A04" horiz-adv-x="1111" d="M56 911Q58 927 71 938T103 950Q120 950 134 939T152 911Q153 907 153 463Q153 16 154 6Q164 -139 278 -245T556 -352Q630 -352 700 -326Q809 -286 878 -196T956 6Q957 16 957 463Q957 907
958 911Q962 928 975 939T1006 950T1037 939T1054 911Q1055 906 1055 451Q1054 -5 1053 -16Q1042 -106 1003 -182Q928 -325 781 -398Q674 -449 555 -449Q511 -449 480 -444Q394 -432 316 -391T179 -286Q83 -180 62 -45Q57 -16 57 25T55 451Q55 906 56 911ZM507
554Q511 570 523 581T554 593Q571 593 585 582T603 554Q604 551 604 443V338H709Q817 338 820 337Q836 334 847 321T859 290Q859 259 832 246Q819 239 788 239Q781 239 756 239T709 240H604V134Q604 48 604 34T598 11Q583 -15 555 -15Q526 -15 512 11Q507 20 507
34T506 134V240H401Q380 240 355 240T322 239Q291 239 278 246Q251 259 251 290Q251 307 262 320T290 337Q293 338 401 338H506V443Q506 551 507 554Z" />
<glyph unicode="&#x2a06;" glyph-name="uni2A06" horiz-adv-x="1111" d="M56 911Q60 927 72 938T103 950Q120 950 134 939T152 911Q153 907 153 277V-352H957V277Q957 907 958 911Q962 928 975 939T1006 950T1036 939T1054 911V891Q1054 871 1054 836T1054 754T1054
647T1055 525T1055 390T1055 250T1055 111T1055 -24T1055 -147T1054 -253T1054 -335T1054 -391V-411Q1047 -442 1016 -449Q1011 -450 552 -450L94 -449Q64 -438 56 -411V-391Q56 -371 56 -336T56 -254T56 -147T55 -25T55 110T55 250T55 389T55 524T55 647T56 753T56
835T56 891V911Z" />
<glyph unicode="&#xeffd;" glyph-name="uniEFFD" horiz-adv-x="300" d="M0 0V100H100V0H0ZM200 0V100H300V0H200Z" />
<glyph unicode="&#xeffe;" glyph-name="uniEFFE" horiz-adv-x="300" d="M0 0V100H100V0H0ZM200 0V100H300V0H200Z" />
<glyph unicode="&#xefff;" glyph-name="uniEFFF" horiz-adv-x="100" d="M0 0V100H100V0H0Z" />
</font>
</defs>
</svg>
